#TITLE:toradora 2nd opening;
#SUBTITLE:silky heart;
#ARTIST:堀江由衣;
#TITLETRANSLIT:;
#SUBTITLETRANSLIT:;
#ARTISTTRANSLIT:yui horie;
#CREDIT:;
#BANNER:banner.png;
#BACKGROUND:bg.png;
#LYRICSPATH:;
#CDTITLE:;
#MUSIC:Silky Heart.mp3;
#OFFSET:0.000;
#SAMPLESTART:44.444;
#SAMPLELENGTH:12.000;
#SELECTABLE:YES;
#BPMS:0.000=135.000;
#STOPS:;
#BGCHANGES:0.000=Toradora! OP2.avi=1.000=1=0=0,
203.000=bg.png=1.000=1=0=0,
99999=-nosongbg-=1.000=0=0=0 // don't automatically add -songbackground-
;
// cache tags:
#FIRSTBEAT:0.500;
#LASTBEAT:203.500;
#SONGFILENAME:songs/Pack anime 1/Silky Heart/Silky Heart.sm;
#HASMUSIC:1;
#HASBANNER:1;
#MUSICLENGTH:89.971;
// end cache tags

//---------------dance-single - ----------------
#NOTES:
     dance-single:
     :
     Hard:
     6:
     0.662,0.622,0.122,1.000,0.094,311.000,11.000,95.000,0.000,0.000:
0000
0000
0000
1000
0000
0000
0010
0000
0000
0100
0000
0000
0001
0000
0000
1000
0000
0000
0020
0000
0030
0000
0000
0000
,
1000
0000
0000
0001
0000
0000
0010
0000
0000
0001
0000
0000
1000
0000
0000
0200
0000
0300
0000
0000
0000
2020
0000
3030
,
0000
0100
0001
1000
0010
0100
0001
1000
,
0001
0000
0000
0100
0000
0000
0001
0000
0000
0010
0000
0000
1000
0000
0000
0002
0000
0003
0000
0000
0000
2002
0000
3003
,
0000
0000
0000
0010
0000
0000
0100
0000
0000
0001
0000
0000
2000
0000
3000
0000
0000
0000
0020
0000
0030
0000
0000
0000
,
0200
0300
0000
0002
0003
0000
2000
3000
0000
0002
0003
0000
,
0200
0300
0000
0002
0003
0000
0020
0030
0000
2000
3000
0000
,
0002
0000
0000
0000
0003
0000
0000
0000
0000
0000
0000
0000
0100
0000
0000
0000
0000
0000
0001
0000
0000
0010
0000
0000
0001
0000
0000
0000
0000
0000
0000
0000
0000
0000
0000
0000
0000
0000
0000
0000
0000
0000
2200
0000
0000
0000
0000
0000
,
0000
0000
0000
0000
3300
0000
0000
0000
0000
0000
0000
0000
1000
0000
0000
0100
0000
0000
0000
0000
0000
0001
0000
0000
0010
0000
0000
0000
0000
0000
1000
0000
0000
0000
0000
0000
0001
0000
0000
0000
0000
0000
0200
0000
0000
0000
0300
0000
,
0000
0000
0000
0010
0000
0000
1000
0000
0000
0002
0000
0003
0000
0000
0000
0200
0000
0300
0000
0000
0000
0020
0000
0030
,
0000
0000
0000
1000
0000
0000
0001
0000
0000
2000
0000
3000
0000
0000
0000
0001
0000
0000
0100
0000
0000
0002
0000
0003
,
0000
0000
0000
0010
0000
0000
0100
0000
0000
0001
0000
0000
1000
0000
0000
0010
0000
0000
1000
0000
0000
0002
0000
0003
,
0000
0000
0000
0200
0000
0300
0000
0000
0000
0002
0000
0003
0000
0000
0000
1000
0000
0000
0100
0000
0000
2000
0000
3000
,
0000
0000
0000
0001
0000
0000
0010
0000
0000
0200
0000
0300
0000
0000
0000
0001
0000
0000
1000
0000
0000
0100
0000
0000
,
0001
0000
0000
1000
0000
0000
0010
0000
0000
1000
0000
0000
0002
0000
0003
0000
0000
0000
0100
0000
0000
0002
0000
0003
,
0000
0000
0000
0000
0000
0000
0202
0000
0000
0000
0303
0000
0000
0000
0000
0000
0000
0000
2020
0000
0000
0000
3030
0000
0000
0000
0000
0000
0000
0000
0100
0000
0000
0000
0000
0000
0001
0000
0000
0010
0000
0000
0001
0000
0000
0000
0000
0000
,
1000
0000
0000
0100
0000
0000
1000
0000
0000
0000
0000
0000
0001
0000
0000
1000
0000
0000
0001
0000
0000
1000
0000
0000
0001
0000
0000
0000
0000
0000
0100
0000
0000
0000
0000
0000
0001
0000
0000
0000
0000
0000
2000
0000
0000
0000
3000
0000
,
0000
0000
0000
0010
0000
0000
0100
0000
0000
2000
0000
3000
0000
0000
0000
0001
0000
0000
0010
0000
0000
1000
0000
0000
,
0001
0000
0000
0100
0000
0000
0001
0000
0000
2000
0000
3000
0000
0000
0000
0010
0000
0000
0001
0000
0000
2000
0000
3000
,
0000
0100
0010
0100
0001
1000
0100
1000
,
0001
0000
0000
0100
0000
0000
0001
0000
0000
0020
0000
0030
0000
0000
0000
2000
0000
3000
0000
0000
0000
0002
0000
0003
,
0000
0000
0000
0100
0000
0000
0001
0000
0000
2000
0000
3000
0000
0000
0000
0010
0000
0000
1000
0000
0000
0010
0000
0000
,
0100
0000
0000
0001
0000
0000
1000
0000
0000
0010
0000
0000
2000
0000
3000
0000
0000
0000
0001
0000
0000
0200
0000
0300
,
0000
0000
0000
2020
0000
3030
0000
0000
0000
0220
0000
0330
0000
0000
0000
0001
0000
0000
2000
0000
3000
0000
0000
0000
,
0010
0000
0000
2000
0000
3000
0000
0000
0000
0001
0000
0000
0100
0000
0000
0001
0000
0000
0010
0000
0000
2000
0000
3000
,
0000
0000
0000
0001
0000
0000
0100
0000
0000
0020
0000
0030
0000
0000
0000
1000
0000
0000
0100
0000
0000
2000
0000
3000
,
0000
0000
0000
0001
0000
0000
1000
0000
0000
0001
0000
0000
0100
0000
0000
0010
0000
0000
0100
0000
0000
0002
0000
0003
,
0000
0000
0000
1000
0000
0000
0001
0000
0000
0200
0000
0300
0000
0000
0000
0010
0000
0000
1000
0000
0000
0020
0000
0030
,
0000
0000
0000
0202
0000
0303
0000
0000
0000
0010
0000
0000
1000
0000
0000
0001
0000
0000
0100
0000
0000
0002
0000
0003
,
0000
1000
0100
0001
0000
0010
0100
2000
,
0000
0000
3000
0000
0000
0000
0001
0000
0000
0100
0000
0000
0010
0000
0000
2000
0000
3000
0000
0000
0000
0001
0000
0000
,
0100
0000
0000
0001
0000
0000
1000
0000
0000
0200
0000
0000
0000
0000
0000
0000
0000
0000
0000
0000
0000
0000
0000
0300
,
0000
0000
0000
0000
0000
0000
0220
0000
0000
0000
0330
0000
0000
0000
0000
0000
0000
0000
1000
0000
0000
0010
0000
0000
1000
0000
0000
0000
0000
0000
0100
0000
0000
0000
0000
0000
0001
0000
0000
0000
0000
0000
2000
0000
0000
0000
3000
0000
,
0000
0010
1000
0100
0001
1000
0100
0020
,
0000
0000
0000
0000
0000
0000
0000
0000
0000
0000
0030
0000
0000
0000
0000
0000
0000
0000
0001
0000
0000
1000
0000
0000
0001
0000
0000
0000
0000
0000
0100
0000
0000
0000
0000
0000
0001
0000
0000
0000
0000
0000
2000
0000
0000
0000
3000
0000
,
0000
0010
0100
1000
0001
0100
0001
0020
,
0000
0000
0000
0000
0000
0000
0000
0000
0000
0000
0030
0000
0000
0000
0000
0000
0000
0000
1000
0000
0000
0100
0000
0000
0010
0000
0000
0000
0000
0000
0000
0000
0000
0000
0000
0000
1000
0000
0000
0000
0000
0000
0001
0000
0000
0010
0000
0000
,
0000
0000
0000
1000
0000
0000
0001
0000
0000
0100
0000
0000
0020
0000
0000
0000
0000
0030
0000
0000
0000
0202
0000
0303
,
0000
0000
0000
0010
0000
0000
0100
0000
0000
0001
0000
0000
2000
0000
3000
0000
0000
0000
0020
0000
0030
0000
0000
0000
,
0200
0000
0300
0000
0000
0000
0001
0000
0000
0020
0000
0030
0000
0000
0000
1000
0000
0000
0001
0000
0000
0200
0000
0300
,
0000
0000
0000
0000
0000
0000
1000
0000
0000
0000
0000
0000
0001
0000
0000
0000
0000
0000
0100
0000
0000
0001
0000
0000
0100
0000
0000
0000
0000
0000
0010
0000
0000
0000
0000
0000
1000
0000
0000
0000
0000
0000
0002
0000
0000
0000
0003
0000
,
0000
0000
0000
0100
0000
0000
0001
0000
0000
0010
0000
0000
0001
0000
0000
1000
0000
0000
0010
0000
0000
2000
0000
3000
,
0000
0000
0000
0000
0000
0000
0001
0000
0000
0000
0000
0000
0100
0000
0000
0000
0000
0000
0010
0000
0000
1000
0000
0000
0010
0000
0000
0000
0000
0000
0100
0000
0000
0000
0000
0000
0001
0000
0000
0000
0000
0000
2000
0000
0000
0000
3000
0000
,
0000
0000
0000
0020
0000
0030
0000
0000
0000
1000
0000
0000
0001
0000
0000
1000
0000
0000
0100
0000
0000
0020
0000
0030
,
0000
0000
0001
0000
1000
0000
0010
0100
0010
0000
1000
0000
0001
0000
1000
0100
,
0000
0000
0000
0001
0000
0000
1000
0000
0000
0010
0000
0000
0100
0000
0000
0001
0000
0000
0000
0000
0000
0002
0000
0003
,
0000
0000
0000
0000
0000
0000
2000
0000
0000
0000
3000
0000
0000
0000
0000
0000
0000
0000
0001
0000
0000
1000
0000
0000
0001
0000
0000
0000
0000
0000
0010
0000
0000
0000
0000
0000
1000
0000
0000
0000
0000
0000
0001
0000
0000
0010
0000
0000
,
0000
0000
0000
1000
0000
0000
0001
0000
0000
0100
0000
0000
2000
0000
3000
0000
0000
0000
0020
0000
0030
0000
0000
0000
,
0001
0000
0000
0200
0000
0300
0000
0000
0000
0010
0000
0000
2000
0000
3000
0000
0000
0000
0002
0000
0000
0000
0000
0003
,
0000
0000
0000
0200
0000
0300
0000
0000
0000
0001
0000
0000
0020
0000
0000
0000
0000
0030
0000
0000
0000
0202
0000
0000
,
0000
0000
0000
0000
0000
0000
0000
0303
;
